Actualité informatique
Test comparatif matériel informatique
Jeux vidéo
Astuces informatique
Vidéo
Télécharger
Services en ligne
Forum informatique
01Business


||-  Appareils

|||-  

Codecs audio / vidéo dans APN [ résolu ]

 

23 utilisateurs inconnus
Ajouter une réponse
 

 
Page photos
 
     
Vider la liste des messages à citer
 
 Page :
1
Auteur
 Sujet :

Codecs audio / vidéo dans APN [ résolu ]

Prévenir les modérateurs en cas d'abus 
DOMI1261
domi1261
Débutant confirmé (de 1 000 à 4 999 messages postés)
  1. Posté le 23/04/2012 à 21:58:14  
  1. answer
  1. Prévenir les modérateurs en cas d'abus
 
Bonjour à toutes et tous

 Alors voila , j'ai une petite question pour vous ...85

 J'ai un APN  Fujifilm Finepix S 5800 équipé d'une carte mémoire de 4Go avec lequel je peux faire des petites vidéos

 J'aimerais savoir si il est possible de changer les codecs audio / vidéo de cet appareil car les vidéos sont extrêmement lourdes  1 mn = 50 Mo  et de qualité plus que médiocre

 Je vous met ci-dessous le détail d'une vidéo ....

 



 

 General
 Complete name                    : F:\DCIM\100_FUJI\DSCF0378.AVI
 Format                           : AVI
 Format/Info                      : Audio Video Interleave
 File size                        : 51.4 MiB
 Duration                         : 1mn 0s
 Overall bit rate                 : 7 180 Kbps
 Mastered date                    : Mon Apr 23 22:28:03 2012

 Video
 ID                               : 0
 Format                           : JPEG
 Codec ID                         : MJPG
 Duration                         : 1mn 0s
 Bit rate                         : 7 084 Kbps
 Width                            : 640 pixels
 Height                           : 480 pixels
 Display aspect ratio             : 4:3
 Frame rate                       : 30.000 fps
 Color space                      : YUV
 Chroma subsampling               : 4:2:2
 Bit depth                        : 8 bits
 Scan type                        : Progressive
 Compression mode                 : Lossy
 Bits/(Pixel*Frame)               : 0.769
 Stream size                      : 50.7 MiB (99%)
 Title                            : FUJIFILM AVI STREAM 0100

 Audio
 ID                               : 1
 Format                           : PCM
 Format settings, Sign            : Unsigned
 Codec ID                         : 1
 Codec ID/Hint                    : Microsoft
 Duration                         : 1mn 0s
 Bit rate mode                    : Constant
 Bit rate                         : 88.2 Kbps
 Channel(s)                       : 1 channel
 Sampling rate                    : 11.024 KHz
 Bit depth                        : 8 bits
 Stream size                      : 646 KiB (1%)
 Interleave, duration             : 1000 ms (30.00 video frames)
 Interleave, preload duration     : 1000 ms

 




 J'ai cherché une solution sur le manuel , mais j'ai abandonné par ce que j'y comprend rien du tout 58  c'est pas bien clair pour un novice


 Avec mes remerciements

 68




avercamp
Débutant confirmé (de 1 000 à 4 999 messages postés)
  1. Posté le 24/04/2012 à 10:09:39  
  1. answer
  1. Prévenir les modérateurs en cas d'abus
 
Bonjour.

 



Bit rate : 7 084 Kbps
 Width : 640 pixels
 Height : 480 pixels
 



 640x480, c'est peu.
 Avec les grands écrans des TV actuelles, les défauts se voient plus.
 En filmant en extérieur, les jours ensoleillés, tu dois avoir des résultats très acceptables.

 Le bit rate est élevé, ça explique la taille du clip.
 C'est normal, le MJPG ne compressse pas ou très peu, le montage est plus précis.
 Après avoir effectué toutes les manips, tu peux compresser, mais pense que tu vas donner, peut-être, des copies autour de toi.
 Choisis un format et des codec très usuels. AVI, XVID et MP3 devraient passer partout.


---------------
C'est en lisant qu' on devient liseron.
(Publicité)
domi1261
Débutant confirmé (de 1 000 à 4 999 messages postés)
  1. Posté le 24/04/2012 à 16:04:18  
  1. answer
  1. Prévenir les modérateurs en cas d'abus
 
Bonjour

 J'ai recherché encore un peu dans les réglages  et je ne peux modifier que 2 éléments

 pal ou ntsc

 ainsi que  la qualité 640 x 480  ou alors  320 x 240 , je ne peux rien changer d'autre

 Si il n'y a pas moyen de changer ce codec " MJPG " par un autre  ni de descendre le  bitrate  , bah , tans pis , ça restera comme cela

 Merci à toi

 68

avercamp
Débutant confirmé (de 1 000 à 4 999 messages postés)
  1. Posté le 24/04/2012 à 18:53:11  
  1. answer
  1. Prévenir les modérateurs en cas d'abus
 



pal ou ntsc



 Tu as laisssé sur pal ?

 



Si il n'y a pas moyen de changer ce codec " MJPG " par un autre ni de descendre le bitrate



 Non, ce n'est pas possible et d'ailleurs ça ne présente aucun intérêt.
 Ce codec ne compressant pratiquement pas permet un montage plus précis.
 Par contre, après le montage, il ne manque pas de logiciels pour convertir en compressant. Format Factory et Freemakeconverter sont les plus cités sur le forum.

 Ton APN est un peu dépassé pour la partie vidéo, mais il peut encore te faire de très bons souvenirs de tes sorties à la plage, en rando...

 Amuse toi bien. :hello





---------------
C'est en lisant qu' on devient liseron.
domi1261
Débutant confirmé (de 1 000 à 4 999 messages postés)
  1. Posté le 25/04/2012 à 06:28:50  
  1. answer
  1. Prévenir les modérateurs en cas d'abus
 

 



 Tu as laisssé sur pal ?




 Je l'ai remis sur pal

 



   mais il peut encore te faire de très bons souvenirs de tes sorties à la plage, en rando...




 C'est vrai que j'ai fais la plupart des essais à dans l'appartement  , il  n'y fait pas très clair

 Pour le montage , j'utilise  AVS vidéo editor  6.0   ,  je ferai des tests dans la semaine pour voir ce que ça donne

 Je te remercie  pour tes conseils

 68

(Publicité)
 Page :
1

Aller à :
 

Sujets relatifs
Comment récupérer mes photos de ma carte sd (résolu) Photo numérique et enregistrement Audio
audio et photos transmetteur audio video
Quel est votre apn ? montage vidérésolu
transfert cassete audio et vidéo codecs
Plus de sujets relatifs à : Codecs audio / vidéo dans APN [ résolu ]

Les 5 sujets de discussion précédents Nombre de réponses Dernier message
Photo +mémo sur Finepix S 5800 (Win XP sp 3) 2
dsc s70 1
Leica M9 3
Questions sur le viseur & alimentation 6
canon powershot ou ixus 2