Actualité informatique
Test comparatif matériel informatique
Jeux vidéo
Astuces informatique
Vidéo
Télécharger
Services en ligne
Forum informatique
01Business

|-  LOGICIELS

||-  Vidéo

|||-  

Subtilités encodage vidéo

 

LOGICIELS : bilbouk et 116 utilisateurs inconnus
Ajouter une réponse
 

 
Page photos
 
     
Vider la liste des messages à citer
 
 Page :
1
Auteur
 Sujet :

Subtilités encodage vidéo

RÉSOLU
Prévenir les modérateurs en cas d'abus 
DOMI1261
domi1261
Débutant confirmé (de 1 000 à 4 999 messages postés)
  1. Posté le 20/10/2013 à 09:17:54  
  1. answer
  1. Prévenir les modérateurs en cas d'abus
 
Bonjour

Une petite question à priori simple , mais la réponse le sera peut être moins

J'enregistre des films à la télé sur un LG hr 550 , puis je les convertis en divx et je les regarde plus tard

Si j'enregistre le même film en HD ou en SD et que je converti avec les mêmes paramêtres , le résultat n'est pas du tout identique , le film enregistré en HD ressort avec une très mauvaise qualité , alors que le même en SD est correcte

Idem si je converti un dvd du commerce , la qualité est bien supérieur que pour un film enregistré alors que le poids de celui ci est bien supérieur

Si quelqu'un pouvait m'expliquer la subtilité

Merci et bon dimanche

 :salut:

avercamp
Débutant confirmé (de 1 000 à 4 999 messages postés)
  1. Posté le 20/10/2013 à 18:53:53  
  1. answer
  1. Prévenir les modérateurs en cas d'abus
 
Bonsoir DOMI.

Avec MediaInfo, donne les résultats pour HD et SD, avant et après conversion.

Idem pour les DVD.

Quel logiciel pour les conversions ?


---------------
C'est en lisant qu' on devient liseron.
(Publicité)
domi1261
Débutant confirmé (de 1 000 à 4 999 messages postés)
  1. Posté le 20/10/2013 à 19:25:34  
  1. answer
  1. Prévenir les modérateurs en cas d'abus
 
Bonjour Avercamp

Pour le logiciel j'utilise AVS vidéo converter 8

pour refaire le test il faudra que je réenregistre un film car j'ai supprimé les fichiers , je dois attendre que Arte passe un film et le repasse en général le lendemain et le surlendemain , mais il font cela assez souvent

Je te tiens au courant dés que j'ai fais les fichiers

Merci et bonne semaine

domi1261
Débutant confirmé (de 1 000 à 4 999 messages postés)
  1. Posté le 27/10/2013 à 17:01:20  
  1. answer
  1. Prévenir les modérateurs en cas d'abus
 
Bonjour

Comme j'ai réussi à retrouver les fichiers , je mets les infos que tu me demande

Avant conversion

.ts SD

General
ID : 4 (0x4)
Complete name : C:\Users\PCfixe\Videos\Minuit dans le jardin du bien et du mal SD.ts
Format : MPEG-TS
File size : 4.78 GiB
Duration : 5s 812ms
Overall bit rate : 10.3 Mbps
Network name : F

Video
ID : 720 (0x2D0)
Menu ID : 1031 (0x407)
Format : AVC
Format/Info : Advanced Video Codec
Format profile : High@L4.0
Format settings, CABAC : Yes
Format settings, ReFrames : 4 frames
Format settings, GOP : M=8, N=32
Codec ID : 27
Duration : 2s 280ms
Bit rate : 9 007 Kbps
Width : 1 920 pixels
Height : 1 080 pixels
Display aspect ratio : 16:9
Frame rate : 25.000 fps
Color space : YUV
Chroma subsampling : 4:2:0
Bit depth : 8 bits
Scan type : MBAFF
Bits/(Pixel*Frame) : 0.174
Stream size : 2.45 MiB (0%)
Color primaries : BT.709-5, BT.1361, IEC 61966-2-4, SMPTE RP177
Transfer characteristics : BT.709-5, BT.1361
Matrix coefficients : BT.709-5, BT.1361, IEC 61966-2-4 709, SMPTE RP177

Audio #1
ID : 730 (0x2DA)
Menu ID : 1031 (0x407)
Format : MPEG Audio
Format version : Version 1
Format profile : Layer 2
Codec ID : 3
Duration : 48ms
Bit rate mode : Constant
Bit rate : 256 Kbps
Channel(s) : 2 channels
Sampling rate : 48.0 KHz
Compression mode : Lossy
Stream size : 1.50 KiB (0%)
Language : French

Audio #2
ID : 731 (0x2DB)
Menu ID : 1031 (0x407)
Format : MPEG Audio
Format version : Version 1
Format profile : Layer 2
Codec ID : 3
Duration : 48ms
Bit rate mode : Constant
Bit rate : 256 Kbps
Channel(s) : 2 channels
Sampling rate : 48.0 KHz
Compression mode : Lossy
Stream size : 1.50 KiB (0%)
Language : qaa

Audio #3
ID : 732 (0x2DC)
Menu ID : 1031 (0x407)
Format : MPEG Audio
Format version : Version 1
Format profile : Layer 2
Codec ID : 3
Duration : 48ms
Bit rate mode : Constant
Bit rate : 128 Kbps
Channel(s) : 2 channels
Sampling rate : 48.0 KHz
Compression mode : Lossy
Stream size : 768 Bytes (0%)
Language : German

Audio #4
ID : 733 (0x2DD)
Menu ID : 1031 (0x407)
Format : MPEG Audio
Format version : Version 1
Format profile : Layer 2
Codec ID : 3
Duration : 48ms
Bit rate mode : Constant
Bit rate : 128 Kbps
Channel(s) : 2 channels
Sampling rate : 48.0 KHz
Compression mode : Lossy
Stream size : 768 Bytes (0%)
Language : qad

Text #1
ID : 740 (0x2E4)
Menu ID : 1031 (0x407)
Format : DVB Subtitle
Codec ID : 6
Language : French

Text #2
ID : 741 (0x2E5)
Menu ID : 1031 (0x407)
Format : DVB Subtitle
Codec ID : 6
Language : German

Text #3
ID : 742 (0x2E6)
Menu ID : 1031 (0x407)
Format : DVB Subtitle
Codec ID : 6
Language : French

Menu
ID : 710 (0x2C6)
Menu ID : 1031 (0x407)
Duration : 5s 812ms
List : 720 (0x2D0) (AVC) / 730 (0x2DA) (MPEG Audio, French) / 731 (0x2DB) (MPEG Audio, qaa) / 732 (0x2DC) (MPEG Audio, German) / 733 (0x2DD) (MPEG Audio, qad) / 740 (0x2E4) (DVB Subtitle, French) / 741 (0x2E5) (DVB Subtitle, German) / 742 (0x2E6) (DVB Subtitle, French)
Language : / French / qaa / German / qad / French / German / French

.ts HD

General
ID : 4 (0x4)
Complete name : H:\Minuit dans le jardin du bien et du mal HD.ts
Format : MPEG-TS
File size : 11.4 GiB
Duration : 3h 5mn
Overall bit rate : 8 815 Kbps
Network name : F

Video
ID : 720 (0x2D0)
Menu ID : 1031 (0x407)
Format : AVC
Format/Info : Advanced Video Codec
Format profile : High@L4.0
Format settings, CABAC : Yes
Format settings, ReFrames : 4 frames
Format settings, GOP : M=1, N=60
Codec ID : 27
Duration : 3h 4mn
Bit rate : 7 604 Kbps
Width : 1 920 pixels
Height : 1 080 pixels
Display aspect ratio : 16:9
Frame rate : 25.000 fps
Color space : YUV
Chroma subsampling : 4:2:0
Bit depth : 8 bits
Scan type : MBAFF
Scan order : Top Field First
Bits/(Pixel*Frame) : 0.147
Stream size : 9.82 GiB (86%)
Color primaries : BT.709-5, BT.1361, IEC 61966-2-4, SMPTE RP177
Transfer characteristics : BT.709-5, BT.1361
Matrix coefficients : BT.709-5, BT.1361, IEC 61966-2-4 709, SMPTE RP177

Audio #1
ID : 730 (0x2DA)
Menu ID : 1031 (0x407)
Format : MPEG Audio
Format version : Version 1
Format profile : Layer 2
Codec ID : 3
Duration : 3h 5mn
Bit rate mode : Constant
Bit rate : 256 Kbps
Channel(s) : 2 channels
Sampling rate : 48.0 KHz
Compression mode : Lossy
Delay relative to video : -616ms
Stream size : 339 MiB (3%)
Language : French

Audio #2
ID : 731 (0x2DB)
Menu ID : 1031 (0x407)
Format : MPEG Audio
Format version : Version 1
Format profile : Layer 2
Codec ID : 3
Duration : 3h 5mn
Bit rate mode : Constant
Bit rate : 256 Kbps
Channel(s) : 2 channels
Sampling rate : 48.0 KHz
Compression mode : Lossy
Delay relative to video : -592ms
Stream size : 339 MiB (3%)
Language : qaa

Audio #3
ID : 732 (0x2DC)
Menu ID : 1031 (0x407)
Format : MPEG Audio
Format version : Version 1
Format profile : Layer 2
Codec ID : 3
Duration : 3h 4mn
Bit rate mode : Constant
Bit rate : 128 Kbps
Channel(s) : 2 channels
Sampling rate : 48.0 KHz
Compression mode : Lossy
Delay relative to video : -447ms
Stream size : 169 MiB (1%)
Language : German

Audio #4
ID : 733 (0x2DD)
Menu ID : 1031 (0x407)
Format : MPEG Audio
Format version : Version 1
Format profile : Layer 2
Codec ID : 3
Duration : 3h 4mn
Bit rate mode : Constant
Bit rate : 128 Kbps
Channel(s) : 2 channels
Sampling rate : 48.0 KHz
Compression mode : Lossy
Delay relative to video : -423ms
Stream size : 169 MiB (1%)
Language : qad

Text #1
ID : 740 (0x2E4)
Menu ID : 1031 (0x407)
Format : DVB Subtitle
Codec ID : 6
Language : French

Text #2
ID : 741 (0x2E5)
Menu ID : 1031 (0x407)
Format : DVB Subtitle
Codec ID : 6
Language : German

Text #3
ID : 742 (0x2E6)
Menu ID : 1031 (0x407)
Format : DVB Subtitle
Codec ID : 6
Language : French

Menu
ID : 710 (0x2C6)
Menu ID : 1031 (0x407)
Duration : 3h 5mn
List : 720 (0x2D0) (AVC) / 730 (0x2DA) (MPEG Audio, French) / 731 (0x2DB) (MPEG Audio, qaa) / 732 (0x2DC) (MPEG Audio, German) / 733 (0x2DD) (MPEG Audio, qad) / 740 (0x2E4) (DVB Subtitle, French) / 741 (0x2E5) (DVB Subtitle, German) / 742 (0x2E6) (DVB Subtitle, French)
Language : / French / qaa / German / qad / French / German / French

Après conversion

.avi pour le fichier SD

General
Complete name : C:\Users\PCfixe\Videos\Minuit dans le jardin du bien et du mal .avi
Format : AVI
Format/Info : Audio Video Interleave
File size : 1.36 GiB
Duration : 2h 28mn
Overall bit rate : 1 310 Kbps

Video
ID : 0
Format : MPEG-4 Visual
Format profile : Advanced Simple@L5
Format settings, BVOP : No
Format settings, QPel : No
Format settings, GMC : No warppoints
Format settings, Matrix : Default (H.263)
Codec ID : XVID
Codec ID/Hint : XviD
Duration : 2h 28mn
Bit rate : 1 207 Kbps
Width : 1 024 pixels
Height : 576 pixels
Display aspect ratio : 16:9
Frame rate : 25.000 fps
Color space : YUV
Chroma subsampling : 4:2:0
Bit depth : 8 bits
Scan type : Progressive
Compression mode : Lossy
Bits/(Pixel*Frame) : 0.082
Stream size : 1.25 GiB (92%)
Writing library : XviD 62

Audio
ID : 1
Format : MPEG Audio
Format version : Version 1
Format profile : Layer 3
Codec ID : 55
Codec ID/Hint : MP3
Duration : 2h 28mn
Bit rate mode : Constant
Bit rate : 96.0 Kbps
Channel(s) : 2 channels
Sampling rate : 44.1 KHz
Compression mode : Lossy
Stream size : 102 MiB (7%)
Alignment : Split accross interleaves
Interleave, duration : 80 ms (2.00 video frames)

.avi pour le fichier HD

General
Complete name : C:\Users\PCfixe\Videos\Minuit dans le jardin du bien et du mal 2.avi
Format : AVI
Format/Info : Audio Video Interleave
File size : 1.77 GiB
Duration : 2h 53mn
Overall bit rate : 1 458 Kbps

Video
ID : 0
Format : MPEG-4 Visual
Format profile : Advanced Simple@L5
Format settings, BVOP : No
Format settings, QPel : No
Format settings, GMC : No warppoints
Format settings, Matrix : Default (H.263)
Codec ID : XVID
Codec ID/Hint : XviD
Duration : 2h 53mn
Bit rate : 1 257 Kbps
Width : 1 920 pixels
Height : 1 080 pixels
Display aspect ratio : 16:9
Frame rate : 25.000 fps
Color space : YUV
Chroma subsampling : 4:2:0
Bit depth : 8 bits
Scan type : Progressive
Compression mode : Lossy
Bits/(Pixel*Frame) : 0.024
Stream size : 1.52 GiB (86%)
Writing library : XviD 62

Audio
ID : 1
Format : MPEG Audio
Format version : Version 1
Format profile : Layer 3
Codec ID : 55
Codec ID/Hint : MP3
Duration : 2h 53mn
Bit rate mode : Constant
Bit rate : 192 Kbps
Channel(s) : 2 channels
Sampling rate : 48.0 KHz
Compression mode : Lossy
Stream size : 239 MiB (13%)
Alignment : Split accross interleaves
Interleave, duration : 45 ms (1.12 video frame)


Merci et bon dimanche ,enfin ce qu'il en reste :^^:
Message édité par DOMI1261 le 27/10/2013 à 17:04:12
avercamp
Débutant confirmé (de 1 000 à 4 999 messages postés)
  1. Posté le 28/10/2013 à 19:46:38  
  1. answer
  1. Prévenir les modérateurs en cas d'abus
 
Les fichiers SD et HD ont tous les 2 la même résolution : 1920x1080.
Après conversion, le SD passe à 1024x576.
Le HD reste à 1920x1080. Pourquoi ne pas l'avoir réduit lui aussi ?

Du coup, le bit rate, s'il est suffisant pour 1024x576, est trop faible pour 1920x1080.
Double le pour voir si la qualité s'améliore.
Si c'est le cas, réduit le par étape pour voir à quelle valeur la qualité se dégrade.

Ou plus simple, réduis la résolution pour le HD.

Encore plus simple, enregistrer avec la tv de rattrapage.
Par exemple Captvty. Les vidéos sont au format flv qui passe sur les tv pas trop anciennes.
La conversion se fait sans difficultés.
S'il y a des lenteurs dans l'avance rapide, remplacer le xvid par divx, plus lourd mais plus complet.

Pour les tests, des séquences de 30 sec sont suffisantes.


---------------
C'est en lisant qu' on devient liseron.
(Publicité)
domi1261
Débutant confirmé (de 1 000 à 4 999 messages postés)
  1. Posté le 29/10/2013 à 18:56:26  
  1. answer
  1. Prévenir les modérateurs en cas d'abus
 
Bonjour Avercamp

Je n'avais pas pensé à réduire la résolution , bien que je le fasse à l'occasion mais je ne sais plus pour quelles raison

J'ai lancé un encodage du fichier HD complet pour tester dans différentes scènes avec une résolution de 1024 x 576 et je te tiens au courant

Merci

 :salut:

domi1261
Débutant confirmé (de 1 000 à 4 999 messages postés)
  1. Posté le 02/11/2013 à 12:29:34  
  1. answer
  1. Prévenir les modérateurs en cas d'abus
 
Bonjour

J'ai donc fais un encodage en 1024 x576 et le résultat est bien supèrieur à ce qu'il était avec la résolution d'origine , j'ai tester en 720 x 480 l'image est bonne aussi , mais cela crée une barre en haut et en bas , je verrai donc à l'usage

Comme codec audio je prend toujours mp 3 , peut être , y en a t'il un autre plus adapté pour des fichiers stockés sur un disque dur de 1000 Gigas ?

En tout cas , je te remercie pour tes conseils qui vont me permettre de créer des fichiers de bien meilleurs qualités

Je te souhaite un excellent week-end

 :salut:

avercamp
Débutant confirmé (de 1 000 à 4 999 messages postés)
  1. Posté le 04/11/2013 à 10:41:09  
  1. answer
  1. Prévenir les modérateurs en cas d'abus
 
j'ai tester en 720 x 480 l'image est bonne aussi , mais cela crée une barre en haut et en bas

Au départ, tes vidéos sont en 16/9, ce qui correspond à ton écran.
Pour conserver ce ratio, il faut mettre 720 x 400.

Comme codec audio je prend toujours mp 3 , peut être , y en a t'il un autre plus adapté pour des fichiers stockés sur un disque dur de 1000 Gigas ?

Tu peux en trouver avec un meilleur rapport qualité / taille, mais il risque de ne pas être accepté par ton lecteur.

Il est possible de modifier la compression des mp3, mais j'ignore si AVS vidéo converter 8 peut le faire. La compression par défaut n'est pas si mal.
Si tu en es satisfait, conserve la.

Si tu as un écran tv avec un port usb sur le cadre ou derrière, il y a des chances qu'il lise les vidéos au format flv, ça t'évitera la conversion.


---------------
C'est en lisant qu' on devient liseron.
(Publicité)
domi1261
Débutant confirmé (de 1 000 à 4 999 messages postés)
  1. Posté le 10/11/2013 à 19:16:41  
  1. answer
  1. Prévenir les modérateurs en cas d'abus
 
Bonjour Avercamp

Désolé pour la réponse tardive ,
j'ai fais quelques tests en fonction de ce que tu me dis ce dessus et le résultat est très sympa

Pour le codec audio , c'était pour info , en fait je vais continuer avec le mp 3 vu que comme tu le dis , cela fonctionne bien

Je n'ai pas de prise usb sur le téléviseur , mais sur 2 enregistreusr tnt raccordés en hdmi ,ils ne lisent pas le flv , mais ce n'est pas bien grave

Grand merci pour ton aide

 Page :
1

Aller à :
 

Sujets relatifs
Encodage MP3 et WMA Lecture encodage de fichiers .trp
comment envoyer en mail,1 fichier video, de plus de 50 Mo problème après encodage
Pertes audibles sur un encodage pourtant dit "sans pertes".  
Plus de sujets relatifs à : Subtilités encodage vidéo

Les 5 sujets de discussion précédents Nombre de réponses Dernier message
Recherche logiciel d'animation d'images 3
Les onglets montages de pinnacles 16 plus ne marchent pas 0
montage vidéo 2
Problème d'extension youtube 5
probleme lecture video (youtube, daillymotion...) 0