Actualité informatique
Test comparatif matériel informatique
Jeux vidéo
Astuces informatique
Vidéo
Télécharger
Services en ligne
Forum informatique
01Business

|-  LOGICIELS

||-  Logiciels

|||-  

Adobe Premiere Pro : la vidéo s'affiche en accéléré

 

gilber3777 LOGICIELS : michel69 INTERNET : Tintin10 et 73 utilisateurs inconnus
Ajouter une réponse
 

 
Page photos
 
     
Vider la liste des messages à citer
 
 Page :
1
Auteur
 Sujet :

Adobe Premiere Pro : la vidéo s'affiche en accéléré

Prévenir les modérateurs en cas d'abus 
ninhoqs
ninhoqs
  1. Posté le 01/12/2017 à 11:06:49  
  1. answer
  1. Prévenir les modérateurs en cas d'abus
 
Bonjour je possède la dernière version de première pro
J'ai un probleme au niveau de la lecture, au niveau de la timeline tout se passe bien mais la video est en accéléré... impossible d'effectuer un montage dans ces conditions..
je possède une tour asus 8go de ram et une carte graphique nvidia
Merci de m'aider car la je suis dans la mouise..

Edit du titre par Tintin10 : titre plus explicite
Message édité par Tintin10 le 02/12/2017 à 11:16:32
  1. config
tintin10
Habitué (de 5 000 à 9 999 messages postés) Développeur
  1. Posté le 02/12/2017 à 11:17:49  
  1. answer
  1. Prévenir les modérateurs en cas d'abus
 
Bonjour. Je voudrais bien savoir l'encodage de ta vidéo : pourrais-tu regarder ce que le programme MediaInfo donne dessus, s'il te plaît, et me donner le contenu ici ?
Message cité 1 fois

---------------
Configuration matérielle : voir ce lien
Merci de respecter les règles du forum
(Publicité)
ninhoqs
  1. Posté le 02/12/2017 à 11:24:43  
  1. answer
  1. Prévenir les modérateurs en cas d'abus
 

Tintin10 a écrit :

Bonjour. Je voudrais bien savoir l'encodage de ta vidéo : pourrais-tu regarder ce que le programme MediaInfo donne dessus, s'il te plaît, et me donner le contenu ici ?
Afficher plus
Afficher moins





Le programme mediainfo?

  1. config
tintin10
Habitué (de 5 000 à 9 999 messages postés) Développeur
  1. Posté le 02/12/2017 à 14:11:44  
  1. answer
  1. Prévenir les modérateurs en cas d'abus
 
Message cité 1 fois

---------------
Configuration matérielle : voir ce lien
Merci de respecter les règles du forum
ninhoqs
  1. Posté le 02/12/2017 à 14:13:25  
  1. answer
  1. Prévenir les modérateurs en cas d'abus
 





Et une fois ce programme installé. Quelle est la marche à suivre?

(Publicité)
  1. config
tintin10
Habitué (de 5 000 à 9 999 messages postés) Développeur
  1. Posté le 04/12/2017 à 20:12:58  
  1. answer
  1. Prévenir les modérateurs en cas d'abus
 
Tu fais un clic droit sur ta vidéo et tu cliques sur MediaInfo. Ca te donnera un contenu qu'il faudrait copier ici.
Message cité 1 fois

---------------
Configuration matérielle : voir ce lien
Merci de respecter les règles du forum
ninhoqs
  1. Posté le 05/12/2017 à 17:31:40  
  1. answer
  1. Prévenir les modérateurs en cas d'abus
 
la capture d'ecran est trop volumineuse dites moi de quoi vous avez besoin je vous le mentionne directement

ninhoqs
  1. Posté le 05/12/2017 à 17:34:16  
  1. answer
  1. Prévenir les modérateurs en cas d'abus
 

Tintin10 a écrit :

Tu fais un clic droit sur ta vidéo et tu cliques sur MediaInfo. Ca te donnera un contenu qu'il faudrait copier ici.
Afficher plus
Afficher moins






Format : MPEG-4
Profil du format : Base Media
Identifiant du codec : isom (isom/iso2/mp41)
Taille du fichier : 393 Mio
Durée : 1 min 52s
Type de débit global : Variable
Débit global moyen : 29,3 Mb/s



ID : 1
Format : AVC
Format/Info : Advanced Video Codec
Profil du format : Main@L5.1
Paramètres du format : CABAC / 1 Ref Frames
Paramètres du format, CABAC : Oui
Paramètres du format, RefFrames : 1 image
Identifiant du codec : avc1
Identifiant du codec/Info : Advanced Video Coding
Durée : 1 min 52s
Durée de la source duration : 1 min 52s
Débit : 29,2 Mb/s
Largeur : 3 840 pixels
Hauteur : 2 160 pixels
Format à l'écran : 16/9
Images par seconde : 30,000 Im/s
Espace de couleurs : YUV
Sous-échantillonnage de la chrominance : 4:2:0
Profondeur des couleurs : 8 bits
Type de balayage : Progressif
Bits/(Pixel*Image) : 0.118
Taille du flux : 392 Mio (100%)
Taille du flux source : 392 Mio (100%)
Langue : Anglais
Gamme de couleurs : Limited
Coordonnées de chromaticité : BT.601 PAL
Caractéristiques du transfert : BT.601
Coefficients de la matrice : BT.470 System B, BT.470 System G
mdhd_Duration : 112398

(Publicité)
  1. config
tintin10
Habitué (de 5 000 à 9 999 messages postés) Développeur
  1. Posté le 05/12/2017 à 20:10:57  
  1. answer
  1. Prévenir les modérateurs en cas d'abus
 
Les vidéos que je traite ont ces données qui fonctionnent généralement :

Format : AVI
Format/Info : Audio Video Interleave
Format profile : OpenDML
File size : 2.39 GiB
Duration : 13 min 13 s
Overall bit rate : 25.9 Mb/s
Writing application : Lavf55.0.100

Video
ID : 0
Format : MPEG-4 Visual
Format profile : Simple@L1
Format settings, BVOP : No
Format settings, QPel : No
Format settings, GMC : No warppoints
Format settings, Matrix : Default (H.263)
Codec ID : FMP4
Duration : 13 min 13 s
Bit rate : 24.3 Mb/s
Width : 1 920 pixels
Height : 1 080 pixels
Display aspect ratio : 16:9
Frame rate : 25.000 FPS
Color space : YUV
Chroma subsampling : 4:2:0
Bit depth : 8 bits
Scan type : Progressive
Compression mode : Lossy
Bits/(Pixel*Frame) : 0.470
Stream size : 2.25 GiB (94%)
Writing library : Lavc55.0.100

Audio
ID : 1
Format : PCM
Format settings : Little / Signed
Format settings, Endianness : Little
Format settings, Sign : Signed
Codec ID : 1
Duration : 13 min 12 s
Bit rate mode : Constant
Bit rate : 1 536 kb/s
Channel(s) : 2 channels
Sampling rate : 48.0 kHz
Bit depth : 16 bits
Stream size : 145 MiB (6%)
Alignment : Aligned on interleaves
Interleave, duration : 21 ms (0.52 video frame)
Interleave, preload duratio : 42 ms


Format : MPEG-4
Format profile : QuickTime
Codec ID : qt 2007.09 (qt /CAEP)
File size : 2.77 GiB
Duration : 8 min 47 s
Overall bit rate : 45.2 Mb/s
Encoded date : UTC 2013-12-06 22:28:38
Tagged date : UTC 2013-12-06 22:28:38
Xtra : WM/MediaClassPrimaryID

Video
ID : 1
Format : AVC
Format/Info : Advanced Video Codec
Format profile : Baseline@L5
Format settings : 1 Ref Frames
Format settings, CABAC : No
Format settings, RefFrames : 1 frame
Format settings, GOP : M=1, N=12
Codec ID : avc1
Codec ID/Info : Advanced Video Coding
Duration : 8 min 47 s
Bit rate : 43.6 Mb/s
Width : 1 920 pixels
Height : 1 080 pixels
Original height : 1 088 pixels
Display aspect ratio : 16:9
Frame rate mode : Constant
Frame rate : 25.000 FPS
Color space : YUV
Chroma subsampling : 4:2:0
Bit depth : 8 bits
Scan type : Progressive
Bits/(Pixel*Frame) : 0.842
Stream size : 2.68 GiB (97%)
Language : English
Encoded date : UTC 2013-12-06 22:28:38
Tagged date : UTC 2013-12-06 22:28:38
Color range : Full
Color primaries : BT.709
Transfer characteristics : BT.709
Matrix coefficients : BT.601

Audio
ID : 2
Format : PCM
Format settings : Little / Signed
Format settings, Endianness : Little
Format settings, Sign : Signed
Codec ID : sowt
Duration : 8 min 47 s
Bit rate mode : Constant
Bit rate : 1 536 kb/s
Channel(s) : 2 channels
Channel positions : Front: L R
Sampling rate : 48.0 kHz
Bit depth : 16 bits
Stream size : 96.5 MiB (3%)
Language : English
Encoded date : UTC 2013-12-06 22:28:38
Tagged date : UTC 2013-12-06 22:28:38


Format : AVI
Format/Info : Audio Video Interleave
File size : 689 MiB
Duration : 4 min 59 s
Overall bit rate : 19.3 Mb/s
Writing application : Lavf55.0.100

Video
ID : 0
Format : MPEG-4 Visual
Format profile : Simple@L1
Format settings, BVOP : No
Format settings, QPel : No
Format settings, GMC : No warppoints
Format settings, Matrix : Default (H.263)
Codec ID : FMP4
Duration : 4 min 59 s
Bit rate : 17.7 Mb/s
Width : 1 920 pixels
Height : 1 080 pixels
Display aspect ratio : 16:9
Frame rate : 25.000 FPS
Color space : YUV
Chroma subsampling : 4:2:0
Bit depth : 8 bits
Scan type : Progressive
Compression mode : Lossy
Bits/(Pixel*Frame) : 0.342
Stream size : 633 MiB (92%)
Writing library : Lavc55.0.100

Audio
ID : 1
Format : PCM
Format settings : Little / Signed
Format settings, Endianness : Little
Format settings, Sign : Signed
Codec ID : 1
Duration : 4 min 59 s
Bit rate mode : Constant
Bit rate : 1 536 kb/s
Channel(s) : 2 channels
Sampling rate : 48.0 kHz
Bit depth : 16 bits
Stream size : 54.8 MiB (8%)
Alignment : Aligned on interleaves
Interleave, duration : 21 ms (0.52 video frame)


Généralement, quand ça ne marche pas (vidéo non-visible ou le son qui dérape en accélérant), j'effectue des conversions avant de les traiter, souvent en M.P.E.G. 4 pour la vidéo et P.C.M. pour le son.
J'utilise le programme en ligne de commande ffmpeg, mais il est peut-être un peu dur à appréhender si on ne sait pas manier les lignes de commande.
Message cité 1 fois

---------------
Configuration matérielle : voir ce lien
Merci de respecter les règles du forum
ninhoqs
  1. Posté le 05/12/2017 à 20:15:06  
  1. answer
  1. Prévenir les modérateurs en cas d'abus
 

Tintin10 a écrit :

Les vidéos que je traite ont ces données qui fonctionnent généralement :

Format : AVI
Format/Info : Audio Video Interleave
Format profile : OpenDML
File size : 2.39 GiB
Duration : 13 min 13 s
Overall bit rate : 25.9 Mb/s
Writing application : Lavf55.0.100

Video
ID : 0
Format : MPEG-4 Visual
Format profile : Simple@L1
Format settings, BVOP : No
Format settings, QPel : No
Format settings, GMC : No warppoints
Format settings, Matrix : Default (H.263)
Codec ID : FMP4
Duration : 13 min 13 s
Bit rate : 24.3 Mb/s
Width : 1 920 pixels
Height : 1 080 pixels
Display aspect ratio : 16:9
Frame rate : 25.000 FPS
Color space : YUV
Chroma subsampling : 4:2:0
Bit depth : 8 bits
Scan type : Progressive
Compression mode : Lossy
Bits/(Pixel*Frame) : 0.470
Stream size : 2.25 GiB (94%)
Writing library : Lavc55.0.100

Audio
ID : 1
Format : PCM
Format settings : Little / Signed
Format settings, Endianness : Little
Format settings, Sign : Signed
Codec ID : 1
Duration : 13 min 12 s
Bit rate mode : Constant
Bit rate : 1 536 kb/s
Channel(s) : 2 channels
Sampling rate : 48.0 kHz
Bit depth : 16 bits
Stream size : 145 MiB (6%)
Alignment : Aligned on interleaves
Interleave, duration : 21 ms (0.52 video frame)
Interleave, preload duratio : 42 ms


Format : MPEG-4
Format profile : QuickTime
Codec ID : qt 2007.09 (qt /CAEP)
File size : 2.77 GiB
Duration : 8 min 47 s
Overall bit rate : 45.2 Mb/s
Encoded date : UTC 2013-12-06 22:28:38
Tagged date : UTC 2013-12-06 22:28:38
Xtra : WM/MediaClassPrimaryID

Video
ID : 1
Format : AVC
Format/Info : Advanced Video Codec
Format profile : Baseline@L5
Format settings : 1 Ref Frames
Format settings, CABAC : No
Format settings, RefFrames : 1 frame
Format settings, GOP : M=1, N=12
Codec ID : avc1
Codec ID/Info : Advanced Video Coding
Duration : 8 min 47 s
Bit rate : 43.6 Mb/s
Width : 1 920 pixels
Height : 1 080 pixels
Original height : 1 088 pixels
Display aspect ratio : 16:9
Frame rate mode : Constant
Frame rate : 25.000 FPS
Color space : YUV
Chroma subsampling : 4:2:0
Bit depth : 8 bits
Scan type : Progressive
Bits/(Pixel*Frame) : 0.842
Stream size : 2.68 GiB (97%)
Language : English
Encoded date : UTC 2013-12-06 22:28:38
Tagged date : UTC 2013-12-06 22:28:38
Color range : Full
Color primaries : BT.709
Transfer characteristics : BT.709
Matrix coefficients : BT.601

Audio
ID : 2
Format : PCM
Format settings : Little / Signed
Format settings, Endianness : Little
Format settings, Sign : Signed
Codec ID : sowt
Duration : 8 min 47 s
Bit rate mode : Constant
Bit rate : 1 536 kb/s
Channel(s) : 2 channels
Channel positions : Front: L R
Sampling rate : 48.0 kHz
Bit depth : 16 bits
Stream size : 96.5 MiB (3%)
Language : English
Encoded date : UTC 2013-12-06 22:28:38
Tagged date : UTC 2013-12-06 22:28:38


Format : AVI
Format/Info : Audio Video Interleave
File size : 689 MiB
Duration : 4 min 59 s
Overall bit rate : 19.3 Mb/s
Writing application : Lavf55.0.100

Video
ID : 0
Format : MPEG-4 Visual
Format profile : Simple@L1
Format settings, BVOP : No
Format settings, QPel : No
Format settings, GMC : No warppoints
Format settings, Matrix : Default (H.263)
Codec ID : FMP4
Duration : 4 min 59 s
Bit rate : 17.7 Mb/s
Width : 1 920 pixels
Height : 1 080 pixels
Display aspect ratio : 16:9
Frame rate : 25.000 FPS
Color space : YUV
Chroma subsampling : 4:2:0
Bit depth : 8 bits
Scan type : Progressive
Compression mode : Lossy
Bits/(Pixel*Frame) : 0.342
Stream size : 633 MiB (92%)
Writing library : Lavc55.0.100

Audio
ID : 1
Format : PCM
Format settings : Little / Signed
Format settings, Endianness : Little
Format settings, Sign : Signed
Codec ID : 1
Duration : 4 min 59 s
Bit rate mode : Constant
Bit rate : 1 536 kb/s
Channel(s) : 2 channels
Sampling rate : 48.0 kHz
Bit depth : 16 bits
Stream size : 54.8 MiB (8%)
Alignment : Aligned on interleaves
Interleave, duration : 21 ms (0.52 video frame)


Généralement, quand ça ne marche pas (vidéo non-visible ou le son qui dérape en accélérant), j'effectue des conversions avant de les traiter, souvent en M.P.E.G. 4 pour la vidéo et P.C.M. pour le son.
J'utilise le programme en ligne de commande ffmpeg, mais il est peut-être un peu dur à appréhender si on ne sait pas manier les lignes de commande.
Afficher plus
Afficher moins





Du coup comment je dois m'y prendre? C'est l'image qui est accélérée le son est parfait

  1. config
tintin10
Habitué (de 5 000 à 9 999 messages postés) Développeur
  1. Posté le 06/12/2017 à 21:01:42  
  1. answer
  1. Prévenir les modérateurs en cas d'abus
 
Je te conseille d'effectuer une conversion de ta vidéo.
Télécharge ffmpeg ici. Décompresse l'archive dans C:\Program Files.
Puis clique successivement sur Démarrer, Tous les programmes, Accessoires et Invite de commande.
Je suppose que ton nom d'utilisateur est "xxxx" et que le dossier où se trouve ta vidéo est C:\Users\xxxx\Videos. Tape la commande suivante :
Code :(Double-cliquez pour supprimer les numéros de ligne)
  1. cd C:\Users\xxxx\Videos

Puis Entrée.
Je suppose que ta vidéo s'appelle video.mp4. Ensuite, tape la commande suivante :
Code :(Double-cliquez pour supprimer les numéros de ligne)
  1. "C:\Program Files\ffmpeg-20171204-71421f3-win64-static\bin\ffmpeg.exe" -i video.mp4 -acodec pcm_s16le -vcodec mpeg4 video.avi

Puis Entrée.
Utilise alors video.avi dans Adobe Premiere Pro.
Message cité 1 fois

---------------
Configuration matérielle : voir ce lien
Merci de respecter les règles du forum
(Publicité)
ninhoqs
  1. Posté le 06/12/2017 à 22:33:41  
  1. answer
  1. Prévenir les modérateurs en cas d'abus
 

Tintin10 a écrit :

Je te conseille d'effectuer une conversion de ta vidéo.
Télécharge ffmpeg ici. Décompresse l'archive dans C:\Program Files.
Puis clique successivement sur Démarrer, Tous les programmes, Accessoires et Invite de commande.
Je suppose que ton nom d'utilisateur est "xxxx" et que le dossier où se trouve ta vidéo est C:\Users\xxxx\Videos. Tape la commande suivante :
Code :(Double-cliquez pour supprimer les numéros de ligne)
  1. cd C:\Users\xxxx\Videos

Puis Entrée.
Je suppose que ta vidéo s'appelle video.mp4. Ensuite, tape la commande suivante :
Code :(Double-cliquez pour supprimer les numéros de ligne)
  1. "C:\Program Files\ffmpeg-20171204-71421f3-win64-static\bin\ffmpeg.exe" -i video.mp4 -acodec pcm_s16le -vcodec mpeg4 video.avi

Puis Entrée.
Utilise alors video.avi dans Adobe Premiere Pro.
Afficher plus
Afficher moins




voici ce qu'on me note une fois que je note les commandes :

n’est pas reconnu en tant que commande interne
ou externe, un programme exécutable ou un fichier de commandes.

  1. config
tintin10
Habitué (de 5 000 à 9 999 messages postés) Développeur
  1. Posté le 07/12/2017 à 18:22:27  
  1. answer
  1. Prévenir les modérateurs en cas d'abus
 
Il me manque le début du message d'erreur, ce qui est censé se trouver entre apostrophes et indiquant ce qu'il n'a pas trouvé.


---------------
Configuration matérielle : voir ce lien
Merci de respecter les règles du forum
 Page :
1

Aller à :
 

Sujets relatifs
Premiere Pro CC 2017 : absence de vidéo Adobe premiere pro
Les systèmes Windows 10 à l'abri des failles de la CIA. A première vue Problème recadrage vidéo durant export (Adobe Premiere CS6)
Plus de sujets relatifs à : Adobe Premiere Pro : la vidéo s'affiche en accéléré

Les 5 sujets de discussion précédents Nombre de réponses Dernier message
Association de fichiers audio vidéo 10
Ouvrir fichiers xlsx avec Excel 2000 et FileFormatConverters 28
Paragon Backup ne sauve pas la partition D ? 0
Paragon backup créer un cd de démarrage de secours 0
Outlook avertisseur de courrier 2